Home / The Nun (2018) BluRay 720p x265 [Dual Audio] [Hindi DD 5 1 - Eng] - Full Movie Online

The Nun (2018) BluRay 720p x265 [Dual Audio] [Hindi DD 5 1 - Eng] - Download Full Movie

date added 1 week ago   
post views 5 views   
torrent id ID: 554574

Torrent Description: Recently Released New Movie On TorrentForest The Nun (2018) BluRay 720p x265 [Dual Audio] [Hindi DD 5 1 - Eng] Full Movie Torrent in HD. The Nun (2018) BluRay 720p x265 [Dual Audio] [Hindi DD 5 1 - Eng] DVD Print Free. 1080p Movie Download The Nun (2018) BluRay 720p x265 [Dual Audio] [Hindi DD 5 1 - Eng] 720p and Bluray Movie Torrent. Scroll Down to Get Download Link.

  • Category : Movies
  • Type : Dubs/Dual Audio
  • Language : Hindi
  • Total size : 828.2 MB
  • Uploaded By : Katyayan-Katyayan

The Nun (2018) BluRay 720p x265 [Dual Audio] [Hindi DD 5.1 - Eng] AAC Esub -=!Katyayan!=-



Special Thanks To Rohit Sawant For Hindi Audio

General
Format                                   : Matroska
Format version                           : Version 4 / Version 2
File size                                : 828 MiB
Duration                                 : 1 h 36 min
Overall bit rate                         : 1 199 kb/s
Movie name                               : The Nun (2018) BluRay 720p x265 [Dual Audio] [Hindi DD 5.1 - Eng] AAC Esub -=!Katyayan!=-
Encoded date                             : UTC 2018-12-06 15:00:40
Writing application                      : mkvmerge v24.0.0 ('Beyond The Pale') 64-bit
Writing library                          : libebml v1.3.6 + libmatroska v1.4.9
Cover                                    : Yes
Attachments                              : The Nun (2018) Cover -=!Katyayan!=-.jpg

Video
ID                                       : 1
Format                                   : HEVC
Format/Info                              : High Efficiency Video Coding
Format profile                           : [email protected]@Main
Codec ID                                 : V_MPEGH/ISO/HEVC
Duration                                 : 1 h 36 min
Bit rate                                 : 927 kb/s
Width                                    : 1 280 pixels
Height                                   : 536 pixels
Display aspect ratio                     : 2.40:1
Frame rate mode                          : Constant
Frame rate                               : 23.976 (24000/1001) FPS
Color space                              : YUV
Chroma subsampling                       : 4:2:0
Bit depth                                : 8 bits
Bits/(Pixel*Frame)                       : 0.056
Stream size                              : 640 MiB (77%)
Title                                    : The Nun (2018) BluRay 720p x265 [Dual Audio] [Hindi DD 5.1 - Eng] AAC Esub -=!Katyayan!=-
Language                                 : English
Default                                  : Yes
Forced                                   : No

Audio #1
ID                                       : 2
Format                                   : AAC
Format/Info                              : Advanced Audio Codec
Format profile                           : HE-AAC / LC
Format settings                          : Explicit
Codec ID                                 : A_AAC-2
Duration                                 : 1 h 36 min
Bit rate                                 : 72.0 kb/s
Channel(s)                               : 2 channels
Channel positions                        : Front: L R
Sampling rate                            : 48.0 kHz / 24.0 kHz
Frame rate                               : 23.438 FPS (1024 SPF)
Compression mode                         : Lossy
Delay relative to video                  : 23 ms
Stream size                              : 50.7 MiB (6%)
Title                                    : -=!Katyayan!=-
Language                                 : English
Default                                  : No
Forced                                   : No

Audio #2
ID                                       : 3
Format                                   : AAC
Format/Info                              : Advanced Audio Codec
Format profile                           : HE-AAC / LC
Format settings                          : Explicit
Codec ID                                 : A_AAC-2
Duration                                 : 1 h 36 min
Bit rate                                 : 192 kb/s
Channel(s)                               : 6 channels
Channel positions                        : Front: L C R, Side: L R, LFE
Sampling rate                            : 48.0 kHz / 24.0 kHz
Frame rate                               : 23.438 FPS (1024 SPF)
Compression mode                         : Lossy
Stream size                              : 133 MiB (16%)
Title                                    : -=!Katyayan!=-
Language                                 : Hindi
Default                                  : Yes
Forced                                   : Yes

Text
ID                                       : 4
Format                                   : VobSub
Muxing mode                              : zlib
Codec ID                                 : S_VOBSUB
Codec ID/Info                            : Picture based subtitle format used on DVDs
Duration                                 : 1 h 35 min
Bit rate                                 : 6 527 b/s
Count of elements                        : 942
Stream size                              : 4.46 MiB (1%)
Title                                    : -=!Katyayan!=-
Language                                 : English
Default                                  : Yes
Forced                                   : Yes



DOWNLOAD LINK

The Nun (2018) BluRay 720p x265 [Dual Audio] [Hindi DD 5 1 - Eng] The Nun (2018) BluRay 720p x265 [Dual Audio] [Hindi DD 5 1 - Eng]

Latest Top Searches of peoples:

Download The Nun (2018) BluRay 720p x265 [Dual Audio] [Hindi DD 5 1 - Eng] Full Movie Torrent HD Quality.

Torrent The Nun (2018) BluRay 720p x265 [Dual Audio] [Hindi DD 5 1 - Eng] Download

Download Free The Nun (2018) BluRay 720p x265 [Dual Audio] [Hindi DD 5 1 - Eng] Torrent

Download The Nun (2018) BluRay 720p x265 [Dual Audio] [Hindi DD 5 1 - Eng] Torrent - Kickass Torrents

The Nun (2018) BluRay 720p x265 [Dual Audio] [Hindi DD 5 1 - Eng] Download Torrent - Extratorrent

The Nun (2018) BluRay 720p x265 [Dual Audio] [Hindi DD 5 1 - Eng] Downlaod - torrentz2.eu

Download The Nun (2018) BluRay 720p x265 [Dual Audio] [Hindi DD 5 1 - Eng] Torrent - Limetorrent.info

Torrent The Nun (2018) BluRay 720p x265 [Dual Audio] [Hindi DD 5 1 - Eng] Download - eztv.ag

The Nun (2018) BluRay 720p x265 [Dual Audio] [Hindi DD 5 1 - Eng] HD Full Download Free 2018 - 123movies




Tagged with:

Related Movies Torrents