Home / Sucker Punch (2011) BluRay - 720p - x264 - [Hindi + Telugu + Tami - Full Movie Online

Sucker Punch (2011) BluRay - 720p - x264 - [Hindi + Telugu + Tami - Download Full Movie

date added 4 weeks ago   
post views 14 views   
torrent id ID: 548132

Torrent Description: Recently Released New Movie On TorrentForest Sucker Punch (2011) BluRay - 720p - x264 - [Hindi + Telugu + Tami Full Movie Torrent in HD. Sucker Punch (2011) BluRay - 720p - x264 - [Hindi + Telugu + Tami DVD Print Free. 1080p Movie Download Sucker Punch (2011) BluRay - 720p - x264 - [Hindi + Telugu + Tami 720p and Bluray Movie Torrent. Scroll Down to Get Download Link.

  • Category : Movies
  • Type : Dubs/Dual Audio
  • Language : Hindi
  • Total size : 952.6 MB
  • Uploaded By : Tamilgun-Tamilgun



Video
ID : 1
Format : AVC
Format/Info : Advanced Video Codec
Format profile : [email protected]
Format settings : CABAC / 5 Ref Frames
Format settings, CABAC : Yes
Format settings, ReFrames : 5 frames
Codec ID : V_MPEG4/ISO/AVC
Duration : 1 h 49 min
Bit rate : 795 kb/s
Width : 1 280 pixels
Height : 528 pixels
Display aspect ratio : 2.40:1
Frame rate mode : Constant
Frame rate : 23.976 (24000/1001) FPS
Color space : YUV
Chroma subsampling : 4:2:0

Audio #1
ID : 2
Format : MPEG Audio
Format version : Version 1
Format profile : Layer 3
Format settings : Joint stereo / MS Stereo
Codec ID : A_MPEG/L3
Codec ID/Hint : MP3
Duration : 1 h 49 min
Bit rate mode : Constant
Bit rate : 128 kb/s
Channel(s) : 2 channels
Sampling rate : 44.1 kHz
Frame rate : 38.281 FPS (1152 SPF)
Compression mode : Lossy
Stream size : 100 MiB (11%)
Title : www.Movcr.cc
Writing library : LAME3.98.2
Language : Hindi
Default : No
Forced : No

Audio #2
ID : 3
Format : MPEG Audio
Format version : Version 1
Format profile : Layer 3
Format settings : Joint stereo / MS Stereo
Codec ID : A_MPEG/L3
Codec ID/Hint : MP3
Duration : 1 h 49 min
Bit rate mode : Constant
Bit rate : 128 kb/s
Channel(s) : 2 channels
Sampling rate : 44.1 kHz
Frame rate : 38.281 FPS (1152 SPF)
Compression mode : Lossy
Stream size : 100 MiB (11%)
Title : www.Movcr.cc
Writing library : LAME3.98.2
Language : Telugu
Default : Yes
Forced : No

Audio #3
ID : 4
Format : MPEG Audio
Format version : Version 1
Format profile : Layer 3
Format settings : Joint stereo / MS Stereo
Codec ID : A_MPEG/L3
Codec ID/Hint : MP3
Duration : 1 h 49 min
Bit rate mode : Constant
Bit rate : 128 kb/s
Channel(s) : 2 channels
Sampling rate : 44.1 kHz
Frame rate : 38.281 FPS (1152 SPF)
Compression mode : Lossy
Stream size : 100 MiB (11%)
Title : www.Movcr.cc
Language : Tamil
Default : No
Forced : No

Audio #4
ID : 5
Format : AAC
Format/Info : Advanced Audio Codec
Format profile : HE-AAC / LC
Format settings : Explicit
Codec ID : A_AAC-2
Duration : 1 h 49 min
Bit rate : 31.9 kb/s
Channel(s) : 2 channels
Channel positions : Front: L R
Sampling rate : 48.0 kHz / 24.0 kHz
Frame rate : 23.438 FPS (1024 SPF)
Compression mode : Lossy
Stream size : 25.1 MiB (3%)
Title : www.Movcr.cc
Language : English
Default : No
Forced : No

Text
ID : 6
Format : UTF-8
Codec ID : S_TEXT/UTF8
Codec ID/Info : UTF-8 Plain Text
Duration : 1 h 43 min
Bit rate : 39 b/s
Count of elements : 1044
Stream size : 30.2 KiB (0%)
Title : www.Movcr.cc
Language : English
Default : Yes
Forced : No

DOWNLOAD LINK

Sucker Punch (2011) BluRay - 720p - x264 - [Hindi + Telugu + Tami Sucker Punch (2011) BluRay - 720p - x264 - [Hindi + Telugu + Tami

Latest Top Searches of peoples:

Download Sucker Punch (2011) BluRay - 720p - x264 - [Hindi + Telugu + Tami Full Movie Torrent HD Quality.

Torrent Sucker Punch (2011) BluRay - 720p - x264 - [Hindi + Telugu + Tami Download

Download Free Sucker Punch (2011) BluRay - 720p - x264 - [Hindi + Telugu + Tami Torrent

Download Sucker Punch (2011) BluRay - 720p - x264 - [Hindi + Telugu + Tami Torrent - Kickass Torrents

Sucker Punch (2011) BluRay - 720p - x264 - [Hindi + Telugu + Tami Download Torrent - Extratorrent

Sucker Punch (2011) BluRay - 720p - x264 - [Hindi + Telugu + Tami Downlaod - torrentz2.eu

Download Sucker Punch (2011) BluRay - 720p - x264 - [Hindi + Telugu + Tami Torrent - Limetorrent.info

Torrent Sucker Punch (2011) BluRay - 720p - x264 - [Hindi + Telugu + Tami Download - eztv.ag

Sucker Punch (2011) BluRay - 720p - x264 - [Hindi + Telugu + Tami HD Full Download Free 2018 - 123movies




Tagged with:

Related Movies Torrents