Home / Easter Bunny Adventure 2018 HDRip XviD AC3 LLG - Full Movie Online

Easter Bunny Adventure 2018 HDRip XviD AC3 LLG - Download Full Movie

date added 1 month ago   
post views 21 views   
torrent id ID: 538522

Torrent Description: Recently Released New Movie On TorrentForest Easter Bunny Adventure 2018 HDRip XviD AC3 LLG Full Movie Torrent in HD. Easter Bunny Adventure 2018 HDRip XviD AC3 LLG DVD Print Free. 1080p Movie Download Easter Bunny Adventure 2018 HDRip XviD AC3 LLG 720p and Bluray Movie Torrent. Scroll Down to Get Download Link.

  • Category : Movies
  • Type : Divx/Xvid
  • Language : English
  • Total size : 881.0 MB
  • Uploaded By : LifeLongg-LifeLongg



******************************Thumbnail:**********************



******************************Screenshots:********************

Screenshot 1

Screenshot 2

Screenshot 3

Screenshot 4

Screenshot 5

Screenshot 6

Screenshot 7

Screenshot 8

Screenshot 9

******************************Poster:**********************



************************************************************

Easter Bunny Adventure.2018.HDRip.XviD.AC3.LLG.mp4
Format : MPEG-4
Format profile : Base Media
Codec ID : isom (isom/iso2/avc1/mp41)
File size : 866 MiB
Duration : 1 h 14 min
Overall bit rate : 1 633 kb/s


Video
ID : 1
Format : AVC
Format/Info : Advanced Video Codec
Format profile : [email protected]
Format settings : CABAC / 4 Ref Frames
Format settings, CABAC : Yes
Format settings, RefFrames : 4 frames
Codec ID : avc1
Codec ID/Info : Advanced Video Coding
Duration : 1 h 14 min
Bit rate : 1 500 kb/s
Width : 720 pixels
Height : 402 pixels
Display aspect ratio : 16:9
Frame rate mode : Constant
Frame rate : 23.976 (23976/1000) FPS
Color space : YUV
Chroma subsampling : 4:2:0
Bit depth : 8 bits
Scan type : Progressive
Bits/(Pixel*Frame) : 0.216
Stream size : 795 MiB (92%)

Audio
ID : 2
Format : AC-3
Format/Info : Audio Coding 3
Commercial name : Dolby Digital
Codec ID : ac-3
Duration : 1 h 14 min
Bit rate mode : Constant
Bit rate : 128 kb/s
Channel(s) : 2 channels
Channel layout : L R
Sampling rate : 48.0 kHz
Frame rate : 31.250 FPS (1536 SPF)
Bit depth : 16 bits
Compression mode : Lossy
Stream size : 67.8 MiB (8%)
Title : Stereo
Language : English
Service kind : Complete Main
Default : Yes
Alternate group : 1

********************************************************

DOWNLOAD LINK

Easter Bunny Adventure 2018 HDRip XviD AC3 LLG Easter Bunny Adventure 2018 HDRip XviD AC3 LLG

Latest Top Searches of peoples:

Download Easter Bunny Adventure 2018 HDRip XviD AC3 LLG Full Movie Torrent HD Quality.

Torrent Easter Bunny Adventure 2018 HDRip XviD AC3 LLG Download

Download Free Easter Bunny Adventure 2018 HDRip XviD AC3 LLG Torrent

Download Easter Bunny Adventure 2018 HDRip XviD AC3 LLG Torrent - Kickass Torrents

Easter Bunny Adventure 2018 HDRip XviD AC3 LLG Download Torrent - Extratorrent

Easter Bunny Adventure 2018 HDRip XviD AC3 LLG Downlaod - torrentz2.eu

Download Easter Bunny Adventure 2018 HDRip XviD AC3 LLG Torrent - Limetorrent.info

Torrent Easter Bunny Adventure 2018 HDRip XviD AC3 LLG Download - eztv.ag

Easter Bunny Adventure 2018 HDRip XviD AC3 LLG HD Full Download Free 2018 - 123movies




Tagged with:

Related Movies Torrents