Home / Easter Bunny Adventure 2018 720p WEB-DL AAC 2 0 x264 [MW] - Full Movie Online

Easter Bunny Adventure 2018 720p WEB-DL AAC 2 0 x264 [MW] - Download Full Movie

date added 2 months ago   
post views 46 views   
torrent id ID: 531168

Torrent Description: Recently Released New Movie On TorrentForest Easter Bunny Adventure 2018 720p WEB-DL AAC 2 0 x264 [MW] Full Movie Torrent in HD. Easter Bunny Adventure 2018 720p WEB-DL AAC 2 0 x264 [MW] DVD Print Free. 1080p Movie Download Easter Bunny Adventure 2018 720p WEB-DL AAC 2 0 x264 [MW] 720p and Bluray Movie Torrent. Scroll Down to Get Download Link.

  • Category : Movies
  • Type : HD
  • Language : English
  • Total size : 730.1 MB
  • Uploaded By : moviezworldz-moviezworldz





General
Format : Matroska
Format version : Version 4 / Version 2
File size : 730 MiB
Duration : 1 h 14 min
Overall bit rate : 1 378 kb/s

Video
ID : 1
Format : AVC
Format/Info : Advanced Video Codec
Format profile : [email protected]
Format settings : CABAC / 4 Ref Frames
Format settings, CABAC : Yes
Format settings, RefFrames : 4 frames
Codec ID : V_MPEG4/ISO/AVC
Duration : 1 h 14 min
Bit rate : 1 250 kb/s
Width : 1 280 pixels
Height : 716 pixels
Display aspect ratio : 16:9
Frame rate mode : Constant
Frame rate : 23.976 (24000/1001) FPS
Color space : YUV
Chroma subsampling : 4:2:0
Bit depth : 8 bits
Scan type : Progressive
Bits/(Pixel*Frame) : 0.057
Stream size : 661 MiB (91%)
Writing library : x264 core 155 r2901 7d0ff22
Default : Yes
Forced : No

Audio
ID : 2
Format : AAC
Format/Info : Advanced Audio Codec
Format profile : LC
Codec ID : A_AAC-2
Duration : 1 h 14 min
Bit rate : 128 kb/s
Channel(s) : 2 channels
Channel positions : Front: L R
Sampling rate : 48.0 kHz
Frame rate : 46.875 FPS (1024 SPF)
Compression mode : Lossy
Stream size : 68.1 MiB (9%)
Language : English
Default : Yes
Forced : No


Click To Enlarge Image






DOWNLOAD LINK

Easter Bunny Adventure 2018 720p WEB-DL AAC 2 0 x264 [MW] Easter Bunny Adventure 2018 720p WEB-DL AAC 2 0 x264 [MW]

Latest Top Searches of peoples:

Download Easter Bunny Adventure 2018 720p WEB-DL AAC 2 0 x264 [MW] Full Movie Torrent HD Quality.

Torrent Easter Bunny Adventure 2018 720p WEB-DL AAC 2 0 x264 [MW] Download

Download Free Easter Bunny Adventure 2018 720p WEB-DL AAC 2 0 x264 [MW] Torrent

Download Easter Bunny Adventure 2018 720p WEB-DL AAC 2 0 x264 [MW] Torrent - Kickass Torrents

Easter Bunny Adventure 2018 720p WEB-DL AAC 2 0 x264 [MW] Download Torrent - Extratorrent

Easter Bunny Adventure 2018 720p WEB-DL AAC 2 0 x264 [MW] Downlaod - torrentz2.eu

Download Easter Bunny Adventure 2018 720p WEB-DL AAC 2 0 x264 [MW] Torrent - Limetorrent.info

Torrent Easter Bunny Adventure 2018 720p WEB-DL AAC 2 0 x264 [MW] Download - eztv.ag

Easter Bunny Adventure 2018 720p WEB-DL AAC 2 0 x264 [MW] HD Full Download Free 2018 - 123movies




Tagged with:

Related Movies Torrents