Home / A Yeti Adventure 2018 Movies 720p HDRip x264 5 1 with Sample ☻rDX - Full Movie Online

A Yeti Adventure 2018 Movies 720p HDRip x264 5 1 with Sample ☻rDX - Download Full Movie

date added 1 month ago   
post views 12 views   
torrent id ID: 536225

Torrent Description: Recently Released New Movie On TorrentForest A Yeti Adventure 2018 Movies 720p HDRip x264 5 1 with Sample ☻rDX Full Movie Torrent in HD. A Yeti Adventure 2018 Movies 720p HDRip x264 5 1 with Sample ☻rDX DVD Print Free. 1080p Movie Download A Yeti Adventure 2018 Movies 720p HDRip x264 5 1 with Sample ☻rDX 720p and Bluray Movie Torrent. Scroll Down to Get Download Link.

  • Category : Movies
  • Type : HD
  • Language : English
  • Total size : 898.8 MB
  • Uploaded By : nehalpuja-nehalpuja

A Yeti Adventure 2018 Movies 720p HDRip x264 5.1 with Sample ☻rDX☻
===============================================================================================

SCREEN SHOTS:



or

https://iphonehosting.eu/2018/10/ebay/1.html

File size : 890 MiB
Duration : 1 h 24 min
Overall bit rate : 1 473 kb/s
Movie name : A Yeti Adventure 2018 Movies 720p HDRip x264 5.1 ☻rDX☻

Video
ID : 2
Format : AVC
Format/Info : Advanced Video Codec
Format profile : [email protected]
Format settings, CABAC : Yes
Format settings, ReFrames : 4 frames
Codec ID : V_MPEG4/ISO/AVC
Duration : 1 h 24 min
Bit rate : 1 088 kb/s
Width : 1 280 pixels
Height : 536 pixels
Display aspect ratio : 2.40:1
Frame rate mode : Constant
Frame rate : 23.976 (23976/1000) FPS
Color space : YUV
Chroma subsampling : 4:2:0
Bit depth : 8 bits
Scan type : Progressive
Bits/(Pixel*Frame) : 0.066
Stream size : 640 MiB (72%)
Title : ☻rDX☻
Writing library : x264

Audio
ID : 1
Format : AC-3
Format/Info : Audio Coding 3
Mode extension : CM (complete main)
Format settings, Endianness : Big
Codec ID : A_AC3
Duration : 1 h 24 min
Bit rate mode : Constant
Bit rate : 384 kb/s
Channel(s) : 6 channels
Channel positions : Front: L C R, Side: L R, LFE
Sampling rate : 48.0 kHz
Frame rate : 31.250 FPS (1536 spf)
Bit depth : 16 bits
Compression mode : Lossy
Delay relative to video : 57 ms
Stream size : 232 MiB (26%)
Title : ☻rDX☻
Language : English
Default : Yes
Forced : No

https://www.imdb.com/title/tt5433884

DOWNLOAD LINK

A Yeti Adventure 2018 Movies 720p HDRip x264 5 1 with Sample ☻rDX A Yeti Adventure 2018 Movies 720p HDRip x264 5 1 with Sample ☻rDX

Latest Top Searches of peoples:

Download A Yeti Adventure 2018 Movies 720p HDRip x264 5 1 with Sample ☻rDX Full Movie Torrent HD Quality.

Torrent A Yeti Adventure 2018 Movies 720p HDRip x264 5 1 with Sample ☻rDX Download

Download Free A Yeti Adventure 2018 Movies 720p HDRip x264 5 1 with Sample ☻rDX Torrent

Download A Yeti Adventure 2018 Movies 720p HDRip x264 5 1 with Sample ☻rDX Torrent - Kickass Torrents

A Yeti Adventure 2018 Movies 720p HDRip x264 5 1 with Sample ☻rDX Download Torrent - Extratorrent

A Yeti Adventure 2018 Movies 720p HDRip x264 5 1 with Sample ☻rDX Downlaod - torrentz2.eu

Download A Yeti Adventure 2018 Movies 720p HDRip x264 5 1 with Sample ☻rDX Torrent - Limetorrent.info

Torrent A Yeti Adventure 2018 Movies 720p HDRip x264 5 1 with Sample ☻rDX Download - eztv.ag

A Yeti Adventure 2018 Movies 720p HDRip x264 5 1 with Sample ☻rDX HD Full Download Free 2018 - 123movies




Tagged with:

Related Movies Torrents