Home / A Doggone Adventure 2018 Movies HDRip x264 5 1 with Sample ☻rDX☻ - Full Movie Online

A Doggone Adventure 2018 Movies HDRip x264 5 1 with Sample ☻rDX☻ - Download Full Movie

date added 5 months ago   
post views 50 views   
torrent id ID: 507226

Torrent Description: Recently Released New Movie On TorrentForest A Doggone Adventure 2018 Movies HDRip x264 5 1 with Sample ☻rDX☻ Full Movie Torrent in HD. A Doggone Adventure 2018 Movies HDRip x264 5 1 with Sample ☻rDX☻ DVD Print Free. 1080p Movie Download A Doggone Adventure 2018 Movies HDRip x264 5 1 with Sample ☻rDX☻ 720p and Bluray Movie Torrent. Scroll Down to Get Download Link.

  • Category : Movies
  • Type : HD
  • Language : English
  • Total size : 847.5 MB
  • Uploaded By : nehalpuja-nehalpuja

A Doggone Adventure 2018 Movies HDRip x264 5.1 with Sample ☻rDX☻
===============================================================================================

SCREEN SHOTS:



or

http://iphonehosting.eu/2018/6/court/1.html

File size : 839 MiB
Duration : 1 h 24 min
Overall bit rate mode : Constant
Overall bit rate : 1 388 kb/s
Movie name : A Doggone Adventure 2018 Movies HDRip x264 5.1 ☻rDX☻

Video
ID : 2
Format : AVC
Format/Info : Advanced Video Codec
Format profile : [email protected]
Format settings, CABAC : Yes
Format settings, ReFrames : 2 frames
Format settings, GOP : M=1, N=12
Codec ID : V_MPEG4/ISO/AVC
Duration : 1 h 24 min
Bit rate mode : Constant
Bit rate : 1 005 kb/s
Width : 720 pixels
Height : 400 pixels
Display aspect ratio : 16:9
Frame rate mode : Constant
Frame rate : 23.976 FPS
Color space : YUV
Chroma subsampling : 4:2:0
Bit depth : 8 bits
Scan type : Progressive
Bits/(Pixel*Frame) : 0.146
Stream size : 590 MiB (70%)
Title : ☻rDX☻
Default : Yes
Forced : No

Audio
ID : 1
Format : AC-3
Format/Info : Audio Coding 3
Mode extension : CM (complete main)
Format settings, Endianness : Big
Codec ID : A_AC3
Duration : 1 h 24 min
Bit rate mode : Constant
Bit rate : 384 kb/s
Channel(s) : 6 channels
Channel positions : Front: L C R, Side: L R, LFE
Sampling rate : 48.0 kHz
Frame rate : 31.250 FPS (1536 spf)
Bit depth : 16 bits
Compression mode : Lossy
Stream size : 232 MiB (28%)
Title : ☻rDX☻
Default : Yes
Forced : No



IMDB : https://www.imdb.com/title/tt6912990

DOWNLOAD LINK

A Doggone Adventure 2018 Movies HDRip x264 5 1 with Sample ☻rDX☻ A Doggone Adventure 2018 Movies HDRip x264 5 1 with Sample ☻rDX☻

Latest Top Searches of peoples:

Download A Doggone Adventure 2018 Movies HDRip x264 5 1 with Sample ☻rDX☻ Full Movie Torrent HD Quality.

Torrent A Doggone Adventure 2018 Movies HDRip x264 5 1 with Sample ☻rDX☻ Download

Download Free A Doggone Adventure 2018 Movies HDRip x264 5 1 with Sample ☻rDX☻ Torrent

Download A Doggone Adventure 2018 Movies HDRip x264 5 1 with Sample ☻rDX☻ Torrent - Kickass Torrents

A Doggone Adventure 2018 Movies HDRip x264 5 1 with Sample ☻rDX☻ Download Torrent - Extratorrent

A Doggone Adventure 2018 Movies HDRip x264 5 1 with Sample ☻rDX☻ Downlaod - torrentz2.eu

Download A Doggone Adventure 2018 Movies HDRip x264 5 1 with Sample ☻rDX☻ Torrent - Limetorrent.info

Torrent A Doggone Adventure 2018 Movies HDRip x264 5 1 with Sample ☻rDX☻ Download - eztv.ag

A Doggone Adventure 2018 Movies HDRip x264 5 1 with Sample ☻rDX☻ HD Full Download Free 2018 - 123movies




Tagged with:

Related Movies Torrents