Home / Kin 2018 720p BluRay English Film - Full Movie Online

Kin 2018 720p BluRay English Film - Download Full Movie

date added 3 months ago   
post views 350653 views   
torrent id ID: 522334

Torrent Description: Recently Released New Movie On TorrentForest Kin 2018 720p BluRay English Film Full Movie Torrent in HD. Kin 2018 720p BluRay English Film DVD Print Free. 1080p Movie Download Kin 2018 720p BluRay English Film 720p and Bluray Movie Torrent. Scroll Down to Get Download Link.

  • Category : Movies
  • Type : h.264/x264
  • Language : English
  • Total size : 1.1 GB
  • Uploaded By : moviezworldz-moviezworldz





General
Format : Matroska
Format version : Version 4 / Version 2
File size : 1.10 GiB
Duration : 1 h 37 min
Overall bit rate : 1 627 kb/s

Video
ID : 1
Format : AVC
Format/Info : Advanced Video Codec
Format profile : [email protected]
Format settings : CABAC / 4 Ref Frames
Format settings, CABAC : Yes
Format settings, RefFrames : 4 frames
Codec ID : V_MPEG4/ISO/AVC
Duration : 1 h 37 min
Bit rate : 1 400 kb/s
Width : 1 280 pixels
Height : 530 pixels
Display aspect ratio : 2.40:1
Frame rate mode : Constant
Frame rate : 29.970 (30000/1001) FPS
Color space : YUV
Chroma subsampling : 4:2:0
Bit depth : 8 bits
Scan type : Progressive
Bits/(Pixel*Frame) : 0.069
Stream size : 971 MiB (86%)
Writing library : x264 core 155 r2901 7d0ff22
Default : Yes
Forced : No

Audio
ID : 2
Format : AAC
Format/Info : Advanced Audio Codec
Format profile : LC
Codec ID : A_AAC-2
Duration : 1 h 37 min
Bit rate : 225 kb/s
Channel(s) : 2 channels
Channel positions : Front: L R
Sampling rate : 48.0 kHz
Frame rate : 46.875 FPS (1024 SPF)
Compression mode : Lossy
Stream size : 156 MiB (14%)
Language : English
Default : Yes
Forced : No


Click To Enlarge Image







DOWNLOAD LINK

Kin 2018 720p BluRay English Film Kin 2018 720p BluRay English Film

Latest Top Searches of peoples:

Download Kin 2018 720p BluRay English Film Full Movie Torrent HD Quality.

Torrent Kin 2018 720p BluRay English Film Download

Download Free Kin 2018 720p BluRay English Film Torrent

Download Kin 2018 720p BluRay English Film Torrent - Kickass Torrents

Kin 2018 720p BluRay English Film Download Torrent - Extratorrent

Kin 2018 720p BluRay English Film Downlaod - torrentz2.eu

Download Kin 2018 720p BluRay English Film Torrent - Limetorrent.info

Torrent Kin 2018 720p BluRay English Film Download - eztv.ag

Kin 2018 720p BluRay English Film HD Full Download Free 2018 - 123movies




Tagged with:

Related Movies Torrents