Home / 120 Battements par Minute 1080p 2017 BRRip x264 AC3 HORiZON-ArtSu - Full Movie Online

120 Battements par Minute 1080p 2017 BRRip x264 AC3 HORiZON-ArtSu - Download Full Movie

date added 9 months ago   
post views 248 views   
torrent id ID: 456535

Torrent Description: Recently Released New Movie On TorrentForest 120 Battements par Minute 1080p 2017 BRRip x264 AC3 HORiZON-ArtSu Full Movie Torrent in HD. 120 Battements par Minute 1080p 2017 BRRip x264 AC3 HORiZON-ArtSu DVD Print Free. 1080p Movie Download 120 Battements par Minute 1080p 2017 BRRip x264 AC3 HORiZON-ArtSu 720p and Bluray Movie Torrent. Scroll Down to Get Download Link.

  • Category : Movies
  • Type : HD
  • Language : French
  • Total size : 2.0 GB
  • Uploaded By : noriegaRJ-noriegaRJ

Release:120.Battements.par.Minute.1080p.2017.BRRip.x264.AC3.HORiZON-ArtSubs



IMDB: http://www.imdb.com/title/tt6135348/

Plot: Members of the advocacy group ACT UP Paris demand action by the government and pharmaceutical companies to combat the AIDS epidemic in the early 1990s. France's submission to the Foreign Language Film Award of the 90th Annual Academy Awards.

General
Complete name               : 120.Battements.par.Minute.1080p.2017.BRRip.x264.AC3.HORiZON-ArtSubs.mkv
Format                      : Matroska
Format version              : Version 4 / Version 2
File size                   : 2.03 GiB
Duration                    : 2 h 23 min
Overall bit rate            : 2 034 kb/s
Encoded date                : UTC 2017-12-20T14:44:20Z
Writing application         : HandBrake 20171011200543-82904f7-master 2017101201
Writing library             : Lavf57.7.2

Video
ID                          : 1
Format                      : AVC
Format/Info                 : Advanced Video Codec
Format profile              : [email protected]
Format settings, CABAC      : Yes
Format settings, RefFrames  : 4 frames
Codec ID                    : V_MPEG4/ISO/AVC
Duration                    : 2 h 23 min
Bit rate                    : 1 584 kb/s
Width                       : 1 920 pixels
Height                      : 800 pixels
Display aspect ratio        : 2.40:1
Frame rate mode             : Constant
Frame rate                  : 23.976 (24000/1001) FPS
Color space                 : YUV
Chroma subsampling          : 4:2:0
Bit depth                   : 8 bits
Scan type                   : Progressive
Bits/(Pixel*Frame)          : 0.043
Stream size                 : 1.54 GiB (76%)
Writing library             : x264 core 148 r2708 86b7198
Encoding settings           : cabac=1 / ref=3 / deblock=1:-1:-1 / analyse=0x3:0x113 / me=hex / subme=7 / psy=1 / psy_rd=1.00:0.15 / mixed_ref=1 / me_range=16 / chroma_me=1 / trellis=1 / 8x8dct=1 / cqm=0 / deadzone=21,11 / fast_pskip=1 / chroma_qp_offset=-3 / threads=12 / lookahead_threads=2 / sliced_threads=0 / nr=0 / decimate=1 / interlaced=0 / bluray_compat=0 / constrained_intra=0 / bframes=3 / b_pyramid=2 / b_adapt=1 / b_bias=0 / direct=1 / weightb=1 / open_gop=0 / weightp=2 / keyint=240 / keyint_min=24 / scenecut=40 / intra_refresh=0 / rc_lookahead=40 / rc=2pass / mbtree=1 / bitrate=1584 / ratetol=1.0 / qcomp=0.60 / qpmin=0 / qpmax=69 / qpstep=4 / cplxblur=20.0 / qblur=0.5 / vbv_maxrate=62500 / vbv_bufsize=78125 / nal_hrd=none / filler=0 / ip_ratio=1.40 / aq=1:1.00
Default                     : Yes
Forced                      : No
Color range                 : Limited
Color primaries             : BT.709
Transfer characteristics    : BT.709
Matrix coefficients         : BT.709

Audio
ID                          : 2
Format                      : AC-3
Format/Info                 : Audio Coding 3
Format settings, Endianness : Big
Codec ID                    : A_AC3
Duration                    : 2 h 23 min
Bit rate mode               : Constant
Bit rate                    : 448 kb/s
Channel(s)                  : 6 channels
Channel positions           : Front: L C R, Side: L R, LFE
Sampling rate               : 48.0 kHz
Frame rate                  : 31.250 FPS (1536 SPF)
Bit depth                   : 16 bits
Compression mode            : Lossy
Stream size                 : 458 MiB (22%)
Title                       : Surround
Language                    : French
Service kind                : Complete Main
Default                     : Yes
Forced                      : No

Menu
00:00:00.000                : :00:00:00.000
00:12:20.615                : :00:12:20.615
00:22:17.253                : :00:22:17.253
00:32:42.335                : :00:32:42.294
00:42:19.704                : :00:42:19.662
00:54:27.264                : :00:54:27.264
01:07:23.540                : :01:07:23.456
01:20:33.329                : :01:20:33.245
01:29:32.951                : :01:29:32.909
01:39:05.523                : :01:39:05.523
01:51:40.569                : :01:51:40.444
01:59:29.663                : :01:59:29.621
02:11:32.259                : :02:11:32.176
02:20:05.022                : :02:20:04.938


SCREENSHOTS:





DOWNLOAD LINK

120 Battements par Minute 1080p 2017 BRRip x264 AC3 HORiZON-ArtSu 120 Battements par Minute 1080p 2017 BRRip x264 AC3 HORiZON-ArtSu

Latest Top Searches of peoples:

Download 120 Battements par Minute 1080p 2017 BRRip x264 AC3 HORiZON-ArtSu Full Movie Torrent HD Quality.

Torrent 120 Battements par Minute 1080p 2017 BRRip x264 AC3 HORiZON-ArtSu Download

Download Free 120 Battements par Minute 1080p 2017 BRRip x264 AC3 HORiZON-ArtSu Torrent

Download 120 Battements par Minute 1080p 2017 BRRip x264 AC3 HORiZON-ArtSu Torrent - Kickass Torrents

120 Battements par Minute 1080p 2017 BRRip x264 AC3 HORiZON-ArtSu Download Torrent - Extratorrent

120 Battements par Minute 1080p 2017 BRRip x264 AC3 HORiZON-ArtSu Downlaod - torrentz2.eu

Download 120 Battements par Minute 1080p 2017 BRRip x264 AC3 HORiZON-ArtSu Torrent - Limetorrent.info

Torrent 120 Battements par Minute 1080p 2017 BRRip x264 AC3 HORiZON-ArtSu Download - eztv.ag

120 Battements par Minute 1080p 2017 BRRip x264 AC3 HORiZON-ArtSu HD Full Download Free 2018 - 123movies




Tagged with:

Related Movies Torrents